Patel Ki Punjabi Shaadi 2017 720p DVD Hindi (www.TodayPK.se)

.
Download .Torrent Magnet
Torren Name: Patel Ki Punjabi Shaadi 2017 720p DVD Hindi (www.TodayPK.se)
Org Name: Patel Ki Punjabi Shaadi
File size: 766.17 MB
Categories: Bollywood Movies 2017
Uploader: TodayPk.se
Seeders: 8 Leechers: 3 Downloaded: 917
Last scrape: 17 March 2018 14:51:05


ebff283becf5d0f55d55d198c11928ba.png


Format : Matroska 
Format version : Version 4 / Version 2 
File size : 766 MiB 
Duration : 2 h 0 min 
Overall bit rate : 892 kb/s 
Movie name : Patel Ki Punjabi Shaadi 2017 

Video 
Format : AVC 
Codec ID : V_MPEG4/ISO/AVC 
Duration : 2 h 0 min 
Bit rate : 800 kb/s 
Width : 1 280 pixels 
Height : 544 pixels 
Display aspect ratio : 2.35:1 
Frame rate mode : Constant 
Frame rate : 23.976 (24000/1001) FPS 
Stream size : 687 MiB (90%) 
Writing library : x264 
Language : Hindi 

Audio 
Format : AAC 
Duration : 2 h 0 min 
Bit rate : 89.3 kb/s 
Channel(s) : 6 channels 
Channel positions : Front: L C R, Side: L R, LFE 
Sampling rate : 44.1 kHz 
Frame rate : 43.066 FPS (1024 SPF) 
Stream size : 76.8 MiB (10%) 
Language : Hindi 

Text 
Language : English