Reservoir Dogs 1992 720p BluRay x264 Dual Audio [Hindi 2.0 - English 2.0] ESub

.
Download .Torrent Magnet
Torren Name: Reservoir Dogs 1992 720p BluRay x264 Dual Audio [Hindi 2.0 - English 2.0] ESub
Org Name: Reservoir Dogs
File size: 729.25 MB
Categories: Movies
Uploader: TodayPk.se
Seeders: 131 Leechers: 125 Downloaded: 318
Last scrape: 26 May 2018 18:09:17


ebff283becf5d0f55d55d198c11928ba.png





General 
Format : Matroska 
Format version : Version 4 / Version 2 
File size : 729 MiB 
Duration : 1 h 39 min 
Overall bit rate : 1 026 kb/s 

Video 
ID : 1 
Format : AVC 
Format/Info : Advanced Video Codec 
Format profile : [email protected] 
Format settings : CABAC / 7 Ref Frames 
Format settings, CABAC : Yes 
Format settings, RefFrames : 7 frames 
Codec ID : V_MPEG4/ISO/AVC 
Duration : 1 h 39 min 
Bit rate : 800 kb/s 
Width : 1 280 pixels 
Height : 544 pixels 
Display aspect ratio : 2.35:1 
Frame rate mode : Constant 
Frame rate : 23.976 (24000/1001) FPS 
Color space : YUV 
Chroma subsampling : 4:2:0 
Bit depth : 8 bits 
Scan type : Progressive 
Bits/(Pixel*Frame) : 0.048 
Stream size : 568 MiB (78%) 
Writing library : x264 core 120 r2164 da19765 
Default : Yes 
Forced : No 

Audio #1 
ID : 2 
Format : AAC 
Format/Info : Advanced Audio Codec 
Format profile : LC 
Codec ID : A_AAC-2 
Duration : 1 h 39 min 
Bit rate : 128 kb/s 
Channel(s) : 2 channels 
Channel positions : Front: L R 
Sampling rate : 48.0 kHz 
Frame rate : 46.875 FPS (1024 SPF) 
Compression mode : Lossy 
Delay relative to video : 11 s 754 ms 
Stream size : 90.8 MiB (12%) 
Language : Hindi 
Default : Yes 
Forced : No 

Audio #2 
ID : 3 
Format : AAC 
Format/Info : Advanced Audio Codec 
Format profile : LC 
Codec ID : A_AAC-2 
Duration : 1 h 39 min 
Bit rate : 96.0 kb/s 
Channel(s) : 2 channels 
Channel positions : Front: L R 
Sampling rate : 48.0 kHz 
Frame rate : 46.875 FPS (1024 SPF) 
Compression mode : Lossy 
Stream size : 68.2 MiB (9%) 
Language : English 
Default : No 
Forced : No 

Text 
ID : 4 
Format : UTF-8 
Codec ID : S_TEXT/UTF8 
Codec ID/Info : UTF-8 Plain Text 
Duration : 1 h 38 min 
Bit rate : 94 b/s 
Count of elements : 1626 
Stream size : 68.6 KiB (0%) 
Default : Yes 
Forced : No