Kaalakaandi 2018 720p Esub HD 5.1 Dual Hind

.
Download .Torrent Magnet
Torren Name: Kaalakaandi 2018 720p Esub HD 5.1 Dual Hind
Org Name: Kaalakaandi
File size: 452.04 MB
Categories: Movies
Uploader: TodayPk.se
Seeders: 132 Leechers: 153 Downloaded: 520
Last scrape: 25 May 2018 18:43:20


ebff283becf5d0f55d55d198c11928ba.png



Format : Matroska 
Format version : Version 4 / Version 2 
File size : 452 MiB 
Duration : 1 h 44 min 
Overall bit rate : 604 kb/s 
Movie name : Kaalakaandi 2018 GOPISAHI 

Video 
ID : 1 
Format : HEVC 
Format/Info : High Efficiency Video Coding 
Format profile : [email protected]@Main 
Codec ID : V_MPEGH/ISO/HEVC 
Duration : 1 h 44 min 
Bit rate : 518 kb/s 
Width : 1 280 pixels 
Height : 544 pixels 
Display aspect ratio : 2.35:1 
Frame rate mode : Constant 
Frame rate : 25.000 FPS 
Color space : YUV 
Chroma subsampling : 4:2:0 
Bit depth : 8 bits 
Bits/(Pixel*Frame) : 0.030 
Stream size : 387 MiB (86%) 
Title : GOPISAHI 
Writing library : x265 2.6:[Windows][GCC 7.2.0][64 bit] 8bit+10bit+12bit 

Audio 
Format : AAC 
Duration : 1 h 44 min 
Bit rate : 84.9 kb/s 
Channel(s) : 6 channels 
Channel positions : Front: L C R, Side: L R, LFE 
Sampling rate : 44.1 kHz 
Frame rate : 43.066 FPS (1024 SPF) 
Compression mode : Lossy 
Stream size : 63.4 MiB (14%) 
Title : GOPISAHI 
Language : Hindi 


Text