Climax Sana Ka (Climax) (2018) Hindi Dubbed 720p HD x264 AAC ESub

.
Download .Torrent Magnet
Torren Name: Climax Sana Ka (Climax) (2018) Hindi Dubbed 720p HD x264 AAC ESub
Org Name: Climax Sana Ka
File size: 671.09 MB
Categories: Movies
Uploader: TodayPk.se
Seeders: 135 Leechers: 135 Downloaded: 257
Last scrape: 25 May 2018 18:41:26


ebff283becf5d0f55d55d198c11928ba.png




General 
Unique ID : 259914284478796026871105742820705268418 (0xC389AB9BBDB46414BF667B3CEF2B72C2) 
Complete name : www.MovCr.com-Climax Sana Ka (Climax) (2018) Hindi Dubbed 720p HD x264 AAC ESubs [MovCr].mkv 
Format : Matroska 
Format version : Version 4 / Version 2 
File size : 671 MiB 
Duration : 1 h 51 min 
Overall bit rate : 841 kb/s 
Movie name : www.MovCr.com 
Encoded date : UTC 2018-05-25 04:42:56 
Writing application : mkvmerge v23.0.0 ('The Bride Said No') 64-bit 
Writing library : libebml v1.3.6 + libmatroska v1.4.9 

Video 
ID : 1 
Format : AVC 
Format/Info : Advanced Video Codec 
Format profile : [email protected] 
Format settings, CABAC : Yes 
Format settings, ReFrames : 3 frames 
Codec ID : V_MPEG4/ISO/AVC 
Duration : 1 h 51 min 
Bit rate : 710 kb/s 
Width : 1 280 pixels 
Height : 720 pixels 
Display aspect ratio : 16:9 
Frame rate mode : Constant 
Frame rate : 25.000 FPS 
Color space : YUV 
Chroma subsampling : 4:2:0 
Bit depth : 8 bits 
Scan type : Progressive 
Bits/(Pixel*Frame) : 0.031 
Stream size : 567 MiB (85%) 
Title : www.MovCr.com 
Default : Yes 
Forced : No 
Color range : Limited 
Color primaries : BT.709 
Transfer characteristics : BT.709 
Matrix coefficients : BT.709 

Audio 
ID : 2 
Format : AAC 
Format/Info : Advanced Audio Codec 
Format profile : LC 
Codec ID : A_AAC 
Duration : 1 h 51 min 
Bit rate : 128 kb/s 
Channel(s) : 2 channels 
Channel positions : Front: L R 
Sampling rate : 44.1 kHz 
Frame rate : 43.066 FPS (1024 spf) 
Compression mode : Lossy 
Stream size : 102 MiB (15%) 
Title : www.MovCr.com 
Language : Hindi 
Default : Yes 
Forced : No 

Text 
ID : 3 
Format : UTF-8 
Codec ID : S_TEXT/UTF8 
Codec ID/Info : UTF-8 Plain Text 
Bit rate : 0 b/s 
Count of elements : 1 
Stream size : 17.0 Bytes (0%) 
Title : www.MovCr.com 
Language : English 
Default : Yes 
Forced : No