Eeti (2015) Hindi Dubbed 720p HD x264 AAc ESubs

.
Download .Torrent Magnet
Torren Name: Eeti (2015) Hindi Dubbed 720p HD x264 AAc ESubs
Org Name: Eeti
File size: 1.02 GB
Categories: Movies
Uploader: TodayPk.se
Seeders: 64 Leechers: 101 Downloaded: 62
Last scrape: 25 May 2018 05:19:43


ebff283becf5d0f55d55d198c11928ba.png




General 
Unique ID : 57093859698708263883544691843543710977 (0x2AF3E09D83021F2EC2B20BC32EC5BD01) 
Complete name : www.MovCr.com-Eeti (2015) Hindi Dubbed 720p HD x264 AAc ESubs [MovCr].mkv 
Format : Matroska 
Format version : Version 4 / Version 2 
File size : 1.02 GiB 
Duration : 2 h 13 min 
Overall bit rate : 1 092 kb/s 
Movie name : www.MovCr.com 
Encoded date : UTC 2018-05-23 10:36:25 
Writing application : mkvmerge v23.0.0 ('The Bride Said No') 64-bit 
Writing library : libebml v1.3.6 + libmatroska v1.4.9 

Video 
ID : 1 
Format : AVC 
Format/Info : Advanced Video Codec 
Format profile : [email protected] 
Format settings, CABAC : Yes 
Format settings, ReFrames : 3 frames 
Codec ID : V_MPEG4/ISO/AVC 
Duration : 2 h 13 min 
Bit rate : 964 kb/s 
Width : 1 280 pixels 
Height : 720 pixels 
Display aspect ratio : 16:9 
Frame rate mode : Constant 
Frame rate : 24.000 FPS 
Color space : YUV 
Chroma subsampling : 4:2:0 
Bit depth : 8 bits 
Scan type : Progressive 
Bits/(Pixel*Frame) : 0.044 
Stream size : 921 MiB (88%) 
Title : www.MovCr.com 
Default : Yes 
Forced : No 
Color range : Limited 
Color primaries : BT.709 
Transfer characteristics : BT.709 
Matrix coefficients : BT.709 

Audio 
ID : 2 
Format : AAC 
Format/Info : Advanced Audio Codec 
Format profile : LC 
Codec ID : A_AAC 
Duration : 2 h 13 min 
Bit rate : 126 kb/s 
Channel(s) : 2 channels 
Channel positions : Front: L R 
Sampling rate : 44.1 kHz 
Frame rate : 43.066 FPS (1024 spf) 
Compression mode : Lossy 
Stream size : 120 MiB (11%) 
Title : www.MovCr.com 
Language : Hindi 
Default : Yes 
Forced : No 

Text 
ID : 3 
Format : UTF-8 
Codec ID : S_TEXT/UTF8 
Codec ID/Info : UTF-8 Plain Text 
Bit rate : 0 b/s 
Count of elements : 1 
Stream size : 17.0 Bytes (0%) 
Title : www.MovCr.com 
Language : English 
Default : Yes 
Forced : No