The Boss 2016 720p Esub BluRay 5.1 Dual Audio English Hind

.
Download .Torrent Magnet
Torren Name: The Boss 2016 720p Esub BluRay 5.1 Dual Audio English Hind
Org Name: The Boss
File size: 506.92 MB
Categories: Hindi
Uploader: TodayPk.se
Seeders: 119 Leechers: 167 Downloaded: 176
Last scrape: 25 May 2018 05:17:48


ebff283becf5d0f55d55d198c11928ba.png


Format : Matroska 
Format version : Version 4 / Version 2 
File size : 507 MiB 
Duration : 1 h 44 min 
Overall bit rate : 680 kb/s 
Movie name : The Boss 2016 I 

Video 
ID : 1 
Format : HEVC 
Format/Info : High Efficiency Video Coding 
Format profile : [email protected]@Main 
Codec ID : V_MPEGH/ISO/HEVC 
Duration : 1 h 44 min 
Bit rate : 502 kb/s 
Width : 1 280 pixels 
Height : 682 pixels 
Display aspect ratio : 1.85:1 
Frame rate mode : Constant 
Frame rate : 23.976 (24000/1001) FPS 
Color space : YUV 
Chroma subsampling : 4:2:0 
Bit depth : 8 bits 
Bits/(Pixel*Frame) : 0.024 
Stream size : 374 MiB (74%) 
Title : GOPISAHI 
Writing library : x265 2.6:[Windows][GCC 7.2.0][64 bit] 8bit+10bit+12bit 

Audio #1 
Format : AAC 
Duration : 1 h 44 min 
Bit rate : 84.0 kb/s 
Channel(s) : 6 channels 
Channel positions : Front: L C R, Side: L R, LFE 
Sampling rate : 44.1 kHz 
Frame rate : 43.066 FPS (1024 SPF) 
Compression mode : Lossy 
Stream size : 62.6 MiB (12%) 
Title : GOPISAHI 
Language : English 

Audio #2 
Format : AAC 
Duration : 1 h 44 min 
Bit rate : 90.8 kb/s 
Channel(s) : 6 channels 
Channel positions : Front: L C R, Side: L R, LFE 
Sampling rate : 44.1 kHz 
Frame rate : 43.066 FPS (1024 SPF) 
Compression mode : Lossy 
Stream size : 67.7 MiB (13%) 
Title : GOPISAHI 
Language : Hindi 

Text 
Language : English