Sinister 2 2015 x264 Esub 720p BluRay 5.1 Dual Audio English H

.
Download .Torrent Magnet
Torren Name: Sinister 2 2015 x264 Esub 720p BluRay 5.1 Dual Audio English H
Org Name: Sinister 2
File size: 535.75 MB
Categories: Hindi
Uploader: TodayPk.se
Seeders: 34 Leechers: 36 Downloaded: 496
Last scrape: 21 May 2018 20:16:24


ebff283becf5d0f55d55d198c11928ba.png



Format : Matroska 

Format version : Version 4 / Version 2 

File size : 536 MiB 

Duration : 1 h 36 min 

Overall bit rate : 774 kb/s 

Movie name : Sinister 2 2015 GOPISAHI 


Video 

Format : AVC 

Codec ID : V_MPEG4/ISO/AVC 

Duration : 1 h 36 min 

Bit rate : 600 kb/s 

Width : 1 278 pixels 

Height : 532 pixels 

Display aspect ratio : 2.40:1 

Frame rate mode : Constant 

Frame rate : 24.000 FPS 

Color space : YUV 

Chroma subsampling : 4:2:0 

Bit depth : 8 bits 

Scan type : Progressive 

Bits/(Pixel*Frame) : 0.037 

Stream size : 415 MiB (77%) 

Title : GOPISAHI 

Writing library : x264 core 155 r2893 b00bcaf 



Audio #1 

Format : AAC 

Duration : 1 h 36 min 

Bit rate : 86.2 kb/s 

Channel(s) : 6 channels 

Channel positions : Front: L C R, Side: L R, LFE 

Sampling rate : 44.1 kHz 

Frame rate : 43.066 FPS (1024 SPF) 

Compression mode : Lossy 

Stream size : 59.6 MiB (11%) 

Title : GOPISAHI 

Language : Hindi 


Audio #2 

Format : AAC 

Duration : 1 h 36 min 

Bit rate : 85.8 kb/s 

Channel(s) : 6 channels 

Channel positions : Front: L C R, Side: L R, LFE 

Sampling rate : 44.1 kHz 

Frame rate : 43.066 FPS (1024 SPF) 

Compression mode : Lossy 

Stream size : 59.4 MiB (11%) 

Title : GOPISAHI 

Language : English 


Text 

Language : English