Inception 2010 1080p BluRay x264 Dual Audio [Hindi DD 5.1 - English DD 5.1] ESub

.
Download .Torrent Magnet
Torren Name: Inception 2010 1080p BluRay x264 Dual Audio [Hindi DD 5.1 - English DD 5.1] ESub
Org Name: Inception
File size: 3.22 GB
Categories: Movies
Uploader: TodayPk.se
Seeders: 73 Leechers: 23 Downloaded: 301
Last scrape: 21 May 2018 19:50:33


ebff283becf5d0f55d55d198c11928ba.png





General 
Format : Matroska 
Format version : Version 4 / Version 2 
File size : 3.22 GiB 
Duration : 2 h 28 min 
Overall bit rate : 3 109 kb/s 

Video 
ID : 1 
Format : AVC 
Format/Info : Advanced Video Codec 
Format profile : [email protected] 
Format settings : CABAC / 4 Ref Frames 
Format settings, CABAC : Yes 
Format settings, RefFrames : 4 frames 
Codec ID : V_MPEG4/ISO/AVC 
Duration : 2 h 28 min 
Bit rate : 2 500 kb/s 
Width : 1 920 pixels 
Height : 800 pixels 
Display aspect ratio : 2.40:1 
Frame rate mode : Constant 
Frame rate : 23.976 (23976/1000) FPS 
Color space : YUV 
Chroma subsampling : 4:2:0 
Bit depth : 8 bits 
Scan type : Progressive 
Bits/(Pixel*Frame) : 0.068 
Stream size : 2.59 GiB (80%) 
Writing library : x264 core 152 r2851M ba24899 
Default : Yes 
Forced : No 

Audio #1 
ID : 2 
Format : AC-3 
Format/Info : Audio Coding 3 
Codec ID : A_AC3 
Duration : 2 h 28 min 
Bit rate mode : Constant 
Bit rate : 384 kb/s 
Channel(s) : 6 channels 
Channel positions : Front: L C R, Side: L R, LFE 
Sampling rate : 48.0 kHz 
Frame rate : 31.250 FPS (1536 SPF) 
Bit depth : 16 bits 
Compression mode : Lossy 
Stream size : 407 MiB (12%) 
Language : Hindi 
Service kind : Complete Main 
Default : Yes 
Forced : No 

Audio #2 
ID : 3 
Format : AC-3 
Format/Info : Audio Coding 3 
Codec ID : A_AC3 
Duration : 2 h 28 min 
Bit rate mode : Constant 
Bit rate : 224 kb/s 
Channel(s) : 6 channels 
Channel positions : Front: L C R, Side: L R, LFE 
Sampling rate : 48.0 kHz 
Frame rate : 31.250 FPS (1536 SPF) 
Bit depth : 16 bits 
Compression mode : Lossy 
Stream size : 237 MiB (7%) 
Language : English 
Service kind : Complete Main 
Default : No 
Forced : No 

Text 
ID : 4 
Format : UTF-8 
Codec ID : S_TEXT/UTF8 
Codec ID/Info : UTF-8 Plain Text 
Duration : 2 h 27 min 
Bit rate : 59 b/s 
Count of elements : 1738 
Stream size : 64.5 KiB (0%) 
Default : Yes 
Forced : No