Popstar Never Stop Never Stopping 2016 x264 Esub 720p BluRay 5.1 Dual Audio English Hindi

.
Download .Torrent Magnet
Torren Name: Popstar Never Stop Never Stopping 2016 x264 Esub 720p BluRay 5.1 Dual Audio English Hindi
Org Name: Popstar Never Stop Never Stopping
File size: 665.48 MB
Categories: Movies
Uploader: TodayPk.se
Seeders: 50 Leechers: 35 Downloaded: 233
Last scrape: 21 May 2018 19:28:30


ebff283becf5d0f55d55d198c11928ba.png


Format : Matroska 

Format version : Version 4 / Version 2 

File size : 665 MiB 

Duration : 1 h 26 min 

Overall bit rate : 1 074 kb/s 

Movie name : Popstar Never Stop Never Stopping 2016 GOPISAHI 


Video 

Format : AVC 

Codec ID : V_MPEG4/ISO/AVC 

Duration : 1 h 26 min 

Bit rate : 900 kb/s 

Width : 1 280 pixels 

Height : 534 pixels 

Display aspect ratio : 2.40:1 

Original display aspect ratio : 2.40:1 

Frame rate mode : Constant 

Frame rate : 23.976 (24000/1001) FPS 

Stream size : 557 MiB (84%) 

Title : GOPISAHI 

Writing library : x264 core 148 


Audio #1 

Format : AAC 

Duration : 1 h 26 min 

Bit rate : 88.3 kb/s 

Channel(s) : 6 channels 

Channel positions : Front: L C R, Side: L R, LFE 

Sampling rate : 44.1 kHz 

Frame rate : 43.066 FPS (1024 SPF) 

Compression mode : Lossy 

Stream size : 54.6 MiB (8%) 

Title : GOPISAHI 

Language : Hindi 


Audio #2 

Format : AAC 

Duration : 1 h 26 min 

Bit rate : 84.3 kb/s 

Channel(s) : 6 channels 

Channel positions : Front: L C R, Side: L R, LFE 

Sampling rate : 44.1 kHz 

Frame rate : 43.066 FPS (1024 SPF) 

Compression mode : Lossy 

Stream size : 52.2 MiB (8%) 

Title : GOPISAHI 

Language : English 


Text 

Language : English