Rebel Romeo (Premikudu) (2018) Hindi Dubbed 1080p WEBHD x26

.
Download .Torrent Magnet
Torren Name: Rebel Romeo (Premikudu) (2018) Hindi Dubbed 1080p WEBHD x26
Org Name: Rebel Romeo
File size: 774.12 MB
Categories: Hindi
Uploader: TodayPk.se
Seeders: 11 Leechers: 3 Downloaded: 89
Last scrape: 19 May 2018 04:44:55


ebff283becf5d0f55d55d198c11928ba.png




Rebel Romeo (Premikudu) (2018) Hindi Dubbed 1080p WEBHD x264 AAC [MRbuZ] 

General 
Unique ID : 256637699570807112695753908087791726753 (0xC1129F7FF4CC1D76A4EC32E8039AB0A1) 
Complete name : www.MRbuZ.com-Rebel Romeo (Premikudu) (2018) Hindi Dubbed 1080p WEBHD x264 AAC [MRbuZ].mkv 
Format : Matroska 
Format version : Version 4 / Version 2 
File size : 774 MiB 
Duration : 1 h 18 min 
Overall bit rate : 1 376 kb/s 
Movie name : www.MRbuZ.com 
Encoded date : UTC 2018-05-11 12:44:20 
Writing application : mkvmerge v22.0.0 ('At The End Of The World') 64-bit 
Writing library : libebml v1.3.5 + libmatroska v1.4.8 

Video 
ID : 1 
Format : AVC 
Format/Info : Advanced Video Codec 
Format profile : [email protected] 
Format settings, CABAC : Yes 
Format settings, ReFrames : 3 frames 
Codec ID : V_MPEG4/ISO/AVC 
Duration : 1 h 18 min 
Bit rate : 1 249 kb/s 
Width : 1 920 pixels 
Height : 1 080 pixels 
Display aspect ratio : 16:9 
Frame rate mode : Constant 
Frame rate : 24.000 FPS 
Color space : YUV 
Chroma subsampling : 4:2:0 
Bit depth : 8 bits 
Scan type : Progressive 
Bits/(Pixel*Frame) : 0.025 
Stream size : 702 MiB (91%) 
Title : www.MRbuZ.com 
Default : Yes 
Forced : No 
Color range : Limited 
Color primaries : BT.709 
Transfer characteristics : BT.709 
Matrix coefficients : BT.709 

Audio 
ID : 2 
Format : AAC 
Format/Info : Advanced Audio Codec 
Format profile : LC 
Codec ID : A_AAC 
Duration : 1 h 18 min 
Bit rate : 126 kb/s 
Channel(s) : 2 channels 
Channel positions : Front: L R 
Sampling rate : 44.1 kHz 
Frame rate : 43.066 FPS (1024 spf) 
Compression mode : Lossy 
Delay relative to video : 85 ms 
Stream size : 70.6 MiB (9%) 
Title : www.MRbuZ.com 
Language : Hindi 
Default : Yes 
Forced : No