Rebel Romeo (Premikudu) (2018) Hindi Dubbed 720p HD x264 AAC

.
Download .Torrent Magnet
Torren Name: Rebel Romeo (Premikudu) (2018) Hindi Dubbed 720p HD x264 AAC
Org Name: Rebel Romeo
File size: 509.93 MB
Categories: Hindi
Uploader: TodayPk.se
Seeders: 22 Leechers: 1 Downloaded: 158
Last scrape: 19 May 2018 04:43:42


ebff283becf5d0f55d55d198c11928ba.png



Rebel Romeo (Premikudu) (2018) Hindi Dubbed 720p HD x264 AAC [MovCR] 

General 
Unique ID : 296418840798219032393838715770562375542 (0xDF00313139F135C5337E30AE6B676F76) 
Complete name : www.MovCR.com-Rebel Romeo (Premikudu) (2018) Hindi Dubbed 720p HD x264 AAC [MovCR].mkv 
Format : Matroska 
Format version : Version 4 / Version 2 
File size : 510 MiB 
Duration : 1 h 18 min 
Overall bit rate : 907 kb/s 
Movie name : www.MovCR.com 
Encoded date : UTC 2018-05-11 12:45:51 
Writing application : mkvmerge v22.0.0 ('At The End Of The World') 64-bit 
Writing library : libebml v1.3.5 + libmatroska v1.4.8 

Video 
ID : 1 
Format : AVC 
Format/Info : Advanced Video Codec 
Format profile : [email protected] 
Format settings, CABAC : Yes 
Format settings, ReFrames : 3 frames 
Codec ID : V_MPEG4/ISO/AVC 
Duration : 1 h 18 min 
Bit rate : 779 kb/s 
Width : 1 280 pixels 
Height : 720 pixels 
Display aspect ratio : 16:9 
Frame rate mode : Constant 
Frame rate : 24.000 FPS 
Color space : YUV 
Chroma subsampling : 4:2:0 
Bit depth : 8 bits 
Scan type : Progressive 
Bits/(Pixel*Frame) : 0.035 
Stream size : 438 MiB (86%) 
Title : www.MovCR.com 
Default : Yes 
Forced : No 
Color range : Limited 
Color primaries : BT.709 
Transfer characteristics : BT.709 
Matrix coefficients : BT.709 

Audio 
ID : 2 
Format : AAC 
Format/Info : Advanced Audio Codec 
Format profile : LC 
Codec ID : A_AAC 
Duration : 1 h 18 min 
Bit rate : 126 kb/s 
Channel(s) : 2 channels 
Channel positions : Front: L R 
Sampling rate : 44.1 kHz 
Frame rate : 43.066 FPS (1024 spf) 
Compression mode : Lossy 
Stream size : 70.6 MiB (14%) 
Title : www.MovCR.com 
Language : Hindi 
Default : Yes 
Forced : No