Samba (2018) Hindi Dubbed - 720p - WEB-HD - x264 - 1.2GB - A

.
Download .Torrent Magnet
Torren Name: Samba (2018) Hindi Dubbed - 720p - WEB-HD - x264 - 1.2GB - A
Org Name: Samba
File size: 1.24 GB
Categories: Movies
Uploader: TodayPk.se
Seeders: 53 Leechers: 51 Downloaded: 74
Last scrape: 16 May 2018 02:19:10


ebff283becf5d0f55d55d198c11928ba.png


Samba (2018) Hindi Dubbed - 720p - WEB-HD - x264 - 1.2GB - AAC - MovCr 


Video 
ID : 1 
Format : AVC 
Format/Info : Advanced Video Codec 
Format profile : [email protected] 
Format settings, CABAC : Yes 
Format settings, ReFrames : 3 frames 
Codec ID : V_MPEG4/ISO/AVC 
Duration : 2 h 3 min 
Bit rate : 1 303 kb/s 
Width : 1 280 pixels 
Height : 720 pixels 
Display aspect ratio : 16:9 
Frame rate mode : Constant 
Frame rate : 25.000 FPS 
Color space : YUV 
Chroma subsampling : 4:2:0 
Bit depth : 8 bits 
Scan type : Progressive 
Bits/(Pixel*Frame) : 0.057 
Stream size : 1.12 GiB (91%) 
Title : www.MovCr.com 
Default : Yes 
Forced : No 
Color range : Limited 
Color primaries : BT.709 
Transfer characteristics : BT.709 
Matrix coefficients : BT.709 

Audio 
ID : 2 
Format : AAC 
Format/Info : Advanced Audio Codec 
Format profile : LC 
Codec ID : A_AAC 
Duration : 2 h 3 min 
Bit rate : 128 kb/s 
Channel(s) : 2 channels 
Channel positions : Front: L R 
Sampling rate : 44.1 kHz 
Frame rate : 43.066 FPS (1024 spf) 
Compression mode : Lossy 
Stream size : 113 MiB (9%) 
Title : www.MovCr.com 
Language : English 
Default : Yes 
Forced : No