Jai Lava Kusa (2018) 720p Uncut HDRip x264-[Dual Audio]-[Hindi (Original) + Telugu] - 1.4GB [

.
Download .Torrent Magnet
Torren Name: Jai Lava Kusa (2018) 720p Uncut HDRip x264-[Dual Audio]-[Hindi (Original) + Telugu] - 1.4GB [
Org Name: Jai Lava Kusa
File size: 1.47 GB
Categories: Movies
Uploader: TodayPk.se
Seeders: 103 Leechers: 162 Downloaded: 544
Last scrape: 15 May 2018 10:41:53


ebff283becf5d0f55d55d198c11928ba.png

Jai Lava Kusa (2018) 720p Uncut HDRip x264-[Dual Audio]-[Hindi (Original) + Telugu] - 1.4GB



General 
Unique ID : 103086246161555769523357849347697095405 (0x4D8DB05767CBE63AA614B7DE1F8332ED) 
Complete name : [www.MovCR.com] Jai Lava Kusa (2018) 720p Uncut HDRip x264-[Dual Audio]-[Hindi (Original) + Telugu] - 1.4GB [MovCR]www.MovCR.com - Jai Lava Kusa (2018) 720p Uncut HDRip x264-[Dual Audio]-[Hindi (Original) + Telugu] - 1.4GB [MovCR].mkv 
Format : Matroska 
Format version : Version 4 / Version 2 
File size : 1.45 GiB 
Duration : 2 h 29 min 
Overall bit rate mode : Variable 
Overall bit rate : 1 386 kb/s 
Movie name : www.MovCR.com 
Encoded date : UTC 2018-05-13 15:01:58 
Writing application : mkvmerge v23.0.0 ('The Bride Said No') 64-bit 
Writing library : libebml v1.3.6 + libmatroska v1.4.9 

Video 
ID : 1 
Format : AVC 
Format/Info : Advanced Video Codec 
Format profile : [email protected] 
Format settings, CABAC : Yes 
Format settings, ReFrames : 4 frames 
Codec ID : V_MPEG4/ISO/AVC 
Duration : 2 h 29 min 
Bit rate : 1 198 kb/s 
Width : 1 280 pixels 
Height : 544 pixels 
Display aspect ratio : 2.35:1 
Frame rate mode : Constant 
Frame rate : 25.000 FPS 
Color space : YUV 
Chroma subsampling : 4:2:0 
Bit depth : 8 bits 
Scan type : Progressive 
Bits/(Pixel*Frame) : 0.069 
Stream size : 1.25 GiB (86%) 
Title : www.MovCR.com 
Writing library : x264 core 152 r2851 ba24899 
Encoding settings : cabac=1 / ref=3 / deblock=1:0:0 / analyse=0x3:0x113 / me=hex / subme=7 / psy=1 / psy_rd=1.00:0.00 / mixed_ref=1 / me_range=16 / chroma_me=1 / trellis=1 / 8x8dct=1 / cqm=0 / deadzone=21,11 / fast_pskip=1 / chroma_qp_offset=-2 / threads=17 / lookahead_threads=2 / sliced_threads=0 / nr=0 / decimate=1 / interlaced=0 / bluray_compat=0 / constrained_intra=0 / bframes=3 / b_pyramid=2 / b_adapt=1 / b_bias=0 / direct=1 / weightb=1 / open_gop=0 / weightp=2 / keyint=250 / keyint_min=25 / scenecut=40 / intra_refresh=0 / rc_lookahead=40 / rc=2pass / mbtree=1 / bitrate=1198 / ratetol=1.0 / qcomp=0.60 / qpmin=0 / qpmax=69 / qpstep=4 / cplxblur=20.0 / qblur=0.5 / ip_ratio=1.40 / aq=1:1.00 
Language : Telugu 
Default : Yes 
Forced : No 

Audio #1 
ID : 2 
Format : MPEG Audio 
Format version : Version 1 
Format profile : Layer 3 
Mode : Joint stereo 
Mode extension : MS Stereo 
Codec ID : A_MPEG/L3 
Codec ID/Hint : MP3 
Duration : 2 h 29 min 
Bit rate mode : Variable 
Bit rate : 89.0 kb/s 
Nominal bit rate : 96.0 kb/s 
Channel(s) : 2 channels 
Sampling rate : 48.0 kHz 
Frame rate : 41.667 FPS (1152 spf) 
Compression mode : Lossy 
Stream size : 95.4 MiB (6%) 
Title : www.MovCR.com 
Writing library : LAME3.99r 
Encoding settings : -m j -V 4 -q 3 -lowpass 15.1 --abr 96 
Language : Hindi 
Default : Yes 
Forced : No 

Audio #2 
ID : 3 
Format : MPEG Audio 
Format version : Version 1 
Format profile : Layer 3 
Mode : Joint stereo 
Mode extension : MS Stereo 
Codec ID : A_MPEG/L3 
Codec ID/Hint : MP3 
Duration : 2 h 29 min 
Bit rate mode : Variable 
Bit rate : 96.0 kb/s 
Channel(s) : 2 channels 
Sampling rate : 48.0 kHz 
Frame rate : 41.667 FPS (1152 spf) 
Compression mode : Lossy 
Stream size : 103 MiB (7%) 
Title : www.MovCR.com 
Writing library : LAME3.99r 
Encoding settings : -m j -V 4 -q 3 -lowpass 15.1 --abr 96 
Language : Telugu 
Default : No 
Forced : No