Red Sparrow (2018) 720p Hindi Dubbed HDRip x264 AaC [Hindi (DD5.

.
Download .Torrent Magnet
Torren Name: Red Sparrow (2018) 720p Hindi Dubbed HDRip x264 AaC [Hindi (DD5.
Org Name: Red Sparrow
File size: 1.15 GB
Categories: Movies
Uploader: TodayPk.se
Seeders: 124 Leechers: 92 Downloaded: 229
Last scrape: 15 May 2018 06:07:22


ebff283becf5d0f55d55d198c11928ba.png



General 
Complete name : Red Sparrow (2018) 720p Hindi Dubbed HDRip x264 AaC [Hindi (DD5.1)] by Full4movies.mkv 
Format : Matroska 
Format version : Version 4 / Version 2 
File size : 1.15 GiB 
Duration : 2 h 20 min 
Overall bit rate : 1 178 kb/s 
Movie name : Red Sparrow (2018) Hindi 
Encoded date : UTC 2018-05-14 05:58:40 
Writing application : mkvmerge v8.1.0 ('Psychedelic Postcard') 32bit 
Writing library : libebml v1.3.1 + libmatroska v1.4.2 

Video 
ID : 1 
Format : AVC 
Format/Info : Advanced Video Codec 
Format profile : [email protected] 
Format settings, CABAC : Yes 
Format settings, RefFrames : 4 frames 
Codec ID : V_MPEG4/ISO/AVC 
Duration : 2 h 20 min 
Bit rate : 1 050 kb/s 
Width : 1 280 pixels 
Height : 534 pixels 
Display aspect ratio : 2.40:1 
Original display aspect ratio : 2.40:1 
Frame rate mode : Variable 
Frame rate : 23.976 FPS 
Color space : YUV 
Chroma subsampling : 4:2:0 
Bit depth : 8 bits 
Scan type : Progressive 
Bits/(Pixel*Frame) : 0.064 
Stream size : 1.03 GiB (89%) 
Writing library : x264 core 155 
Language : English 
Default : Yes 
Forced : No 

Audio 
ID : 2 
Format : AAC 
Format/Info : Advanced Audio Codec 
Format profile : LC 
Codec ID : A_AAC 
Duration : 2 h 20 min 
Bit rate : 125 kb/s 
Channel(s) : 2 channels 
Channel positions : Front: L R 
Sampling rate : 44.1 kHz 
Frame rate : 43.066 FPS (1024 SPF) 
Compression mode : Lossy 
Delay relative to video : -66 ms 
Stream size : 126 MiB (11%) 
Language : Hindi 
Default : Yes 
Forced : No 

Screen Shoots