Spyder (2017) 720p HDrip x264 Dual Audio [Hindi DD 2.0 - Telugu DD 2.0] ~ Ranvijay

.
Download .Torrent Magnet
Torren Name: Spyder (2017) 720p HDrip x264 Dual Audio [Hindi DD 2.0 - Telugu DD 2.0] ~ Ranvijay
Org Name: Spyder
File size: 1.36 GB
Categories: Movies
Uploader: TodayPk.se
Seeders: 28 Leechers: 83 Downloaded: 62
Last scrape: 12 May 2018 17:45:48


ebff283becf5d0f55d55d198c11928ba.png



Spyder (2017) 720p HDrip x264 Dual Audio [Hindi DD 2.0 - Telugu DD 2.0] ~ Ranvijay 

Buy RDP Online 



Thanks To Desiremovies.pw For Hindi Audio 

Format                                   : Matroska 
Format version                           : Version 4 / Version 2 
File size                                : 1.36 GiB 
Duration                                 : 2 h 16 min 
Overall bit rate                         : 1 426 kb/s 
Movie name                               : Spyder (2017) 720p HDrip x264 Dual Audio [Hindi DD 2.0 - Telugu DD 2.0] ~ Ranvijay 

Video 
ID                                       : 1 
Format                                   : AVC 
Format/Info                              : Advanced Video Codec 
Duration                                 : 2 h 16 min 
Bit rate                                 : 1 000 kb/s 
Width                                    : 1 280 pixels 
Height                                   : 562 pixels 
Display aspect ratio                     : 2.25:1 
Original display aspect ratio            : 2.25:1 
Frame rate mode                          : Constant 
Frame rate                               : 29.970 (30000/1001) FPS 
Stream size                              : 984 MiB (71%) 
Title                                    : ~Ranvijay~ 
Writing library                          : x264 core 142 r2479 dd79a61 
Default                                  : Yes 
Forced                                   : No 

Audio #1 
ID                                       : 2 
Format                                   : AAC 
Format/Info                              : Advanced Audio Codec 
Format profile                           : LC 
Codec ID                                 : A_AAC-2 
Duration                                 : 2 h 16 min 
Bit rate                                 : 192 kb/s 
Channel(s)                               : 2 channels 
Channel positions                        : Front: L R 
Sampling rate                            : 48.0 kHz 
Frame rate                               : 46.875 FPS (1024 SPF) 
Compression mode                         : Lossy 
Delay relative to video                  : -67 ms 
Stream size                              : 187 MiB (13%) 
Title                                    : ~Ranvijay~ 
Language                                 : Hindi 
Default                                  : Yes 
Forced                                   : No 

Audio #2 
ID                                       : 3 
Format                                   : AAC 
Format/Info                              : Advanced Audio Codec 
Format profile                           : LC 
Codec ID                                 : A_AAC-2 
Duration                                 : 2 h 16 min 
Bit rate                                 : 224 kb/s 
Channel(s)                               : 2 channels 
Channel positions                        : Front: L R 
Sampling rate                            : 48.0 kHz 
Frame rate                               : 46.875 FPS (1024 SPF) 
Compression mode                         : Lossy 
Delay relative to video                  : -21 ms 
Stream size                              : 219 MiB (16%) 
Title                                    : ~Ranvijay~ 
Language                                 : Telugu 
Default                                  : No 
Forced                                   : No