Broken City (2013) Hindi Dubbed Movie HDRip x264 AAC ESubs

.
Download .Torrent Magnet
Torren Name: Broken City (2013) Hindi Dubbed Movie HDRip x264 AAC ESubs
Org Name: Broken City
File size: 873.02 MB
Categories: Hindi Dubbed Movies
Uploader: TodayPk.se
Seeders: 46 Leechers: 29 Downloaded: 100
Last scrape: 26 April 2018 03:55:34


ebff283becf5d0f55d55d198c11928ba.png



General 
Complete name : Broken City (2013) Hindi Dubbed Movie HDRip x264 AAC ESubs by Full4movies.mkv 
Format : Matroska 
Format version : Version 4 / Version 2 
File size : 873 MiB 
Duration : 1 h 48 min 
Overall bit rate : 1 123 kb/s 
Movie name : Broken City (2013) Hindi 
Encoded date : UTC 2018-04-24 17:26:58 
Writing application : mkvmerge v8.1.0 ('Psychedelic Postcard') 32bit 
Writing library : libebml v1.3.1 + libmatroska v1.4.2 

Video 
ID : 1 
Format : AVC 
Format/Info : Advanced Video Codec 
Format profile : [email protected] 
Format settings, CABAC : Yes 
Format settings, RefFrames : 12 frames 
Codec ID : V_MPEG4/ISO/AVC 
Duration : 1 h 48 min 
Bit rate : 994 kb/s 
Width : 1 280 pixels 
Height : 528 pixels 
Display aspect ratio : 2.40:1 
Frame rate mode : Constant 
Frame rate : 23.976 (24000/1001) FPS 
Color space : YUV 
Chroma subsampling : 4:2:0 
Bit depth : 8 bits 
Scan type : Progressive 
Bits/(Pixel*Frame) : 0.061 
Stream size : 772 MiB (88%) 
Writing library : x264 core 130 r2273 b3065e6 
Default : Yes 
Forced : No 

Audio 
ID : 2 
Format : AAC 
Format/Info : Advanced Audio Codec 
Format profile : LC 
Codec ID : A_AAC 
Duration : 1 h 48 min 
Bit rate : 128 kb/s 
Channel(s) : 2 channels 
Channel positions : Front: L R 
Sampling rate : 48.0 kHz 
Frame rate : 46.875 FPS (1024 SPF) 
Compression mode : Lossy 
Stream size : 99.5 MiB (11%) 
Language : Hindi 
Default : Yes 
Forced : No 

Text 
ID : 3 
Format : UTF-8 
Codec ID : S_TEXT/UTF8 
Codec ID/Info : UTF-8 Plain Text 
Duration : 1 h 42 min 
Bit rate : 96 b/s 
Count of elements : 1624 
Stream size : 72.1 KiB (0%) 
Default : Yes 
Forced : No 

Screen Shoots