Killer Tongue 1996 DvD Dual Audio Hindi Telugu GOPISA

.
Download .Torrent Magnet
Torren Name: Killer Tongue 1996 DvD Dual Audio Hindi Telugu GOPISA
Org Name: Killer Tongue
File size: 293.96 MB
Categories: Movies
Uploader: TodayPk.se
Seeders: 141 Leechers: 78 Downloaded: 295
Last scrape: 29 March 2018 06:00:02


ebff283becf5d0f55d55d198c11928ba.png


Format : Matroska 
Format version : Version 4 / Version 2 
File size : 294 MiB 
Duration : 1 h 37 min 
Overall bit rate : 420 kb/s 
Movie name : Killer Tongue 1996 GOPISAHI 

Video 
Format : AVC 
Codec ID : V_MPEG4/ISO/AVC 
Duration : 1 h 37 min 
Bit rate : 300 kb/s 
Width : 720 pixels 
Height : 320 pixels 
Display aspect ratio : 2.25:1 
Frame rate mode : Variable 
Frame rate : 23.855 FPS 
Stream size : 207 MiB (71%) 
Title : GOPISAHI 
Writing library : x264 core 130 r2273 b3065e6 
Language : English 

Audio #1 
ID : 2 
Format : AAC 
Format/Info : Advanced Audio Codec 
Duration : 1 h 35 min 
Bit rate : 58.9 kb/s 
Channel(s) : 6 channels 
Channel positions : Front: L C R, Side: L R, LFE 
Sampling rate : 44.1 kHz 
Frame rate : 43.066 FPS (1024 SPF) 
Compression mode : Lossy 
Delay relative to video : 11 ms 
Stream size : 40.2 MiB (14%) 
Title : GOPISAHI 
Language : Hindi 

Audio #2 
Format : AAC 
Duration : 1 h 37 min 
Bit rate : 63.4 kb/s 
Channel(s) : 6 channels 
Channel positions : Front: L C R, Side: L R, LFE 
Sampling rate : 44.1 kHz 
Frame rate : 43.066 FPS (1024 SPF) 
Compression mode : Lossy 
Stream size : 44.4 MiB (15%) 
Title : GOPISAHI 
Language : Telugu